<?xml version="1.0" standalone="no"?> 
<!DOCTYPE svg PUBLIC "-//W3C//DTD SVG 1.1//EN" "http://www.w3.org/Graphics/SVG/1.1/DTD/svg11.dtd" >
<svg xmlns="http://www.w3.org/2000/svg">
<defs>
  <font id="dnnicon" horiz-adv-x="549">
    <font-face font-family="dnnicon"
      units-per-em="512" ascent="448"
      descent="64" />
    <missing-glyph horiz-adv-x="0" />
    <glyph glyph-name="arrow-down"
      unicode="&#xF101;"
      horiz-adv-x="512" d=" M256.3 -64L339.7000000000001 19.4V19.5L506.6 186.4L423.2000000000001 269.8L315.6 162.3V447.4H197.6V161.6L89.4 269.8L6 186.4L181.2 11.1" />
    <glyph glyph-name="arrow-left"
      unicode="&#xF102;"
      horiz-adv-x="512" d=" M0.6 191.7L84 108.3H84.1L251 -58.6L334.4 24.8L226.9 132.4H512V250.4H226.2L334.4 358.6L251 442L75.7 266.8" />
    <glyph glyph-name="arrow-right"
      unicode="&#xF103;"
      horiz-adv-x="512" d=" M436.8 267.1L261.3 442.3L177.8 358.9L286.1 250.7H0V132.7H285.4L177.8 25.1L261.3 -58.2999999999999L428.4 108.6H428.5L512 192" />
    <glyph glyph-name="arrow-square-down"
      unicode="&#xF104;"
      horiz-adv-x="512" d=" M255.9 21.3L312.1 77.6L424.5 190.4L368.3 246.8000000000001L295.8 174.1V366.7H216.4V173.6L143.5 246.7L87.3 190.4L205.3 72 M512.1 -39.7H463.4V399.8H48.7V-39.7H0V448.5H512.1 M0 -15.3H512.1V-64H0z" />
    <glyph glyph-name="arrow-square-up"
      unicode="&#xF105;"
      horiz-adv-x="512" d=" M256.2 363.2L200 306.9L87.6 194.1L143.8 137.7L216.3 210.4V17.8H295.7000000000001V210.9L368.6 137.8L424.8 194.1L306.8 312.5 M0 424.2H48.7V-15.3H463.4V424.2H512.1V-64H0 M0 448.5H512.1V399.8H0z" />
    <glyph glyph-name="arrow-up"
      unicode="&#xF106;"
      horiz-adv-x="512" d=" M256 448L172.5 364.5V364.4L5.4 197.3L88.9 113.8L196.6 221.4V-64H314.8V222.1L423.1 113.8L506.6 197.3L331.2 372.8" />
    <glyph glyph-name="arrows"
      unicode="&#xF107;"
      horiz-adv-x="512" d=" M512 192Q512 184.572 506.572 179.143L433.43 106Q428 100.572 420.572 100.572T407.715 106T402.287 118.857V155.43H292.573V45.715H329.145Q336.573 45.715 342.002 40.287T347.43 27.4300000000001T342.002 14.5730000000001L268.86 -58.57Q263.43 -63.998 256.002 -63.998T243.145 -58.57L170.002 14.573Q164.574 20.001 164.574 27.43T170.002 40.2869999999999T182.859 45.7149999999999H219.429V155.43H109.714V118.857Q109.714 111.429 104.284 106T91.428 100.572T78.57 106L5.43 179.143Q0 184.57 0 192T5.43 204.857L78.57 278Q84 283.428 91.427 283.428T104.285 278T109.715 265.1430000000001V228.573H219.43V338.286H182.858Q175.43 338.286 170.001 343.716T164.574 356.572T170 369.43L243.143 442.573Q248.573 448.003 256 448.003T268.857 442.573L342 369.43Q347.428 364 347.428 356.573T342 343.716T329.1430000000001 338.286H292.57V228.572H402.285V265.144Q402.285 272.572 407.713 278.001T420.57 283.4310000000001T433.4269999999999 278.004L506.5699999999999 204.861Q511.9979999999999 199.431 511.9979999999999 192.003z" />
    <glyph glyph-name="caret-down"
      unicode="&#xF108;"
      horiz-adv-x="293" d=" M292.572 246.857Q292.572 239.427 287.144 234L159.144 106Q153.716 100.572 146.287 100.572T133.43 106L5.43 234Q0 239.428 0 246.857T5.43 259.714T18.287 265.142H274.287Q281.715 265.142 287.144 259.714T292.572 246.857z" />
    <glyph glyph-name="caret-left"
      unicode="&#xF109;"
      horiz-adv-x="183" d=" M182.857 320V64Q182.857 56.572 177.427 51.143T164.571 45.715T151.716 51.143L23.716 179.143Q18.286 184.571 18.286 192T23.716 204.857L151.716 332.8570000000001Q157.144 338.2870000000001 164.573 338.2870000000001T177.431 332.8570000000001T182.856 320z" />
    <glyph glyph-name="caret-right"
      unicode="&#xF10A;"
      horiz-adv-x="183" d=" M164.572 192Q164.572 184.572 159.142 179.143L31.142 51.143Q25.714 45.715 18.286 45.715T5.43 51.143T0 64V320Q0 327.43 5.43 332.857T18.286 338.2870000000001T31.143 332.857L159.143 204.857Q164.571 199.427 164.571 192z" />
    <glyph glyph-name="caret-up"
      unicode="&#xF10B;"
      horiz-adv-x="293" d=" M292.572 100.57Q292.572 93.143 287.144 87.714T274.2870000000001 82.286H18.287Q10.857 82.286 5.43 87.714T0 100.57T5.43 113.428L133.43 241.428Q138.86 246.856 146.287 246.856T159.144 241.428L287.144 113.428Q292.572 108 292.572 100.571z" />
    <glyph glyph-name="check-square-o"
      unicode="&#xF10C;"
      horiz-adv-x="476" d=" M402.286 182.285V91.428Q402.286 57.428 378.1430000000001 33.285T320 9.142H82.285Q48.285 9.142 24.142 33.285T0 91.428V329.1430000000001Q0 363.1430000000001 24.142 387.286T82.285 411.43H320Q338 411.43 353.428 404.286Q357.714 402.286 358.571 397.714Q359.431 392.857 356.001 389.429L342.001 375.429Q339.144 372.569 335.429 372.569Q334.572 372.569 332.857 373.142Q326.285 374.857 320 374.857H82.282Q63.425 374.857 49.996 361.427T36.566 329.141V91.43Q36.566 72.572 49.996 59.143T82.282 45.715H319.997Q338.8540000000001 45.715 352.283 59.143T365.711 91.429V164Q365.711 167.715 368.283 170.287L386.569 188.573Q389.4260000000001 191.43 393.141 191.43Q394.855 191.43 396.569 190.573Q402.283 188.287 402.283 182.287zM468.286 322L235.714 89.428Q228.857 82.571 219.429 82.571T203.141 89.431L80.286 212.284Q73.429 219.141 73.429 228.569T80.284 244.855L111.714 276.283Q118.57 283.14 127.999 283.14T144.285 276.285L219.428 201.142L404.284 386Q411.141 392.857 420.57 392.857T436.858 386L468.286 354.57Q475.143 347.714 475.143 338.285T468.285 322z" />
    <glyph glyph-name="check"
      unicode="&#xF10D;"
      horiz-adv-x="512" d=" M477.43 286.285Q477.43 274.857 469.43 266.857L223.713 21.142Q215.713 13.142 204.285 13.142T184.857 21.142L42.572 163.428Q34.572 171.428 34.572 182.856T42.572 202.284L81.43 241.14Q89.43 249.14 100.858 249.14T120.288 241.14L204.288 156.856L391.715 344.57Q399.715 352.57 411.143 352.57T430.571 344.57L469.429 305.714Q477.429 297.714 477.429 286.284z" />
    <glyph glyph-name="cloud-down"
      unicode="&#xF10E;"
      horiz-adv-x="512" d=" M287.3 257H223.3V97H159.3L255.3 -31L351.3 97H287.3 M447.1 271.2L447.3 273C447.3 352.5 382.8 417 303.3 417C249.9 417 203.7 387.6 178.9 344.3C168.1 349.7 156.2 353 143.3 353C99.1 353 63.3 317.2 63.3 273L63.5 271.2C25.4 249 -0.7 208.1 -0.7 161C-0.7 90.6 56.9 33 127.3 33V65C74.4 65 31.3 108.1 31.3 161C31.3 194.6 49.8 226.2 79.6 243.6L95.5 252.9V271.3L95.3 274.6C96.1 300.4000000000001 117.3 321 143.3 321C150.4 321 157.5 319.2000000000001 164.6 315.7000000000001L191.6 302.2000000000001L206.6 328.4000000000001C227.1 363.8 263.2 385 303.3 385C364.4000000000001 385 414.2000000000001 335.8 415.3 274.9L415.1 273.7000000000001V252.8L431 243.5C460.8 226.1 479.3 194.5 479.3 160.9C479.3 108 436.2 64.9 383.3 64.9V32.9C453.7 32.9 511.3 90.5 511.3 160.9C511.3 208.1 485.3 249 447.1 271.2z" />
    <glyph glyph-name="cloud-up"
      unicode="&#xF10F;"
      horiz-adv-x="512" d=" M447.8 270.2L448 272C448 351.5 383.5 416 304 416C250.6 416 204.4 386.6 179.6 343.3C168.8 348.7 156.9 352 144 352C99.8 352 64 316.2 64 272L64.2 270.2C26.1 248 0 207.1 0 160C0 89.6 57.6 32 128 32H160V64H128C75.1 64 32 107.1 32 160C32 193.6 50.5 225.2 80.3 242.6L96.2 251.9V270.3L96 273.6C96.8 299.4000000000001 118 320 144 320C151.1 320 158.2 318.2000000000001 165.3 314.7000000000001L192.3 301.2000000000001L207.3 327.4000000000001C227.7 362.8 263.8 384 304 384C365.1 384 414.9 334.8 416 273.9L415.8 272.7000000000001V251.8L431.7 242.5C461.5 225.1 480 193.5 480 159.9C480 107 436.9 63.9 384 63.9H352V31.9H384C454.4 31.9 512 89.5 512 159.9C512 207.1 485.9 248 447.8 270.2z M256 256L160 128H224V-32H288V128H352" />
    <glyph glyph-name="cog"
      unicode="&#xF110;"
      horiz-adv-x="439" d=" M292.572 192Q292.572 222.286 271.144 243.714T219.43 265.142T167.716 243.714T146.288 192T167.716 140.286T219.43 118.858T271.144 140.286T292.572 192zM438.857 223.143V159.713Q438.857 156.286 436.571 153.143T430.859 149.4280000000001L378.002 141.4280000000001Q372.575 126.0000000000001 366.86 115.4280000000001Q376.86 101.1420000000001 397.432 76.0000000000001Q400.288 72.5720000000001 400.288 68.8570000000001T397.716 62.2850000000001Q390.002 51.7130000000001 369.43 31.4280000000001T342.573 11.1420000000001Q339.147 11.1420000000001 335.147 13.7140000000001L295.719 44.5710000000001Q283.147 38.0010000000002 269.719 33.7160000000001Q265.147 -5.1409999999998 261.433 -19.4269999999999Q259.433 -27.4269999999999 251.146 -27.4269999999999H187.718Q183.718 -27.4269999999999 180.718 -24.9969999999999T177.432 -18.8549999999999L169.432 33.7170000000001Q155.432 38.2890000000001 143.716 44.2890000000001L103.43 13.7170000000001Q100.572 11.1450000000001 96.286 11.1450000000001Q92.286 11.1450000000001 89.143 14.2880000000001Q53.143 46.8600000000001 42.001 62.2880000000001Q40.001 65.1450000000001 40.001 68.8600000000001Q40.001 72.2870000000001 42.286 75.4300000000001Q46.571 81.4300000000001 56.858 94.4300000000001T72.288 114.5730000000001Q64.57 128.86 60.57 142.86L8.284 150.573Q4.569 151.1450000000001 2.284 154.1450000000001T0 160.858V224.286Q0 227.716 2.285 230.858T7.715 234.572L60.857 242.572Q64.857 255.715 72 268.858Q60.57 285.144 41.428 308.286Q38.571 311.716 38.571 315.1430000000001Q38.571 318 41.145 321.7150000000001Q48.574 332 69.286 352.43T96.286 372.86Q100.001 372.86 103.716 370.002L143.143 339.43Q155.715 346.002 169.143 350.2870000000001Q173.715 389.144 177.429 403.43Q179.429 411.43 187.713 411.43H251.141Q255.141 411.43 258.141 409.002T261.427 402.8590000000001L269.427 350.2850000000001Q283.427 345.713 295.14 339.713L335.713 370.2850000000001Q338.285 372.8570000000001 342.57 372.8570000000001Q346.284 372.8570000000001 349.713 369.999Q386.57 335.999 396.856 321.427Q398.856 319.141 398.856 315.141Q398.856 311.711 396.57 308.5710000000001Q392.284 302.5710000000001 381.998 289.5710000000001T366.57 269.427Q373.998 255.141 378.284 241.427L430.57 233.427Q434.284 232.8570000000001 436.57 229.8570000000001T438.856 223.142z" />
    <glyph glyph-name="cogs"
      unicode="&#xF111;"
      horiz-adv-x="549" d=" M256 192Q256 222.286 234.572 243.714T182.858 265.142T131.144 243.714T109.714 192T131.144 140.286T182.858 118.858T234.572 140.286T256 192zM475.43 45.714Q475.43 60.571 464.572 71.428T438.858 82.285T413.144 71.428T402.2870000000001 45.714Q402.2870000000001 30.571 413.0010000000001 19.857T438.8610000000001 9.143T464.717 19.857T475.431 45.7139999999999zM475.43 338.284Q475.43 353.142 464.572 364T438.858 374.857T413.144 364T402.2870000000001 338.285Q402.2870000000001 323.142 413.0010000000001 312.428T438.8610000000001 301.714T464.717 312.428T475.431 338.285zM365.714 218V165.143Q365.714 162.286 363.714 159.571T359.142 156.571L314.856 149.716Q311.713 139.716 305.713 128.002Q315.427 114.289 331.427 95.146Q333.427 92.289 333.427 89.432Q333.427 86.002 331.427 84.002Q324.855 75.432 307.855 58.432T285.427 41.432Q282.284 41.432 279.427 43.432L246.57 69.145Q236 63.717 224.57 60.288Q221.43 29.43 218 16Q216 9.143 209.428 9.143H156.285Q153.142 9.143 150.571 11.2859999999999T147.716 16.2859999999999L141.142 60Q131.428 62.857 119.712 68.857L86 43.43Q84 41.43 80.285 41.43Q77.142 41.43 74.285 43.715Q33.142 81.715 33.142 89.429Q33.142 91.999 35.142 94.855Q37.999 98.855 46.857 109.9980000000001T60.287 127.4250000000001Q53.714 139.9970000000001 50.287 150.8530000000001L6.857 157.7100000000001Q4 157.998 2 160.426T0 165.998V218.854Q0 221.711 2 224.424T6.572 227.424L50.858 234.282Q54 244.284 60 256Q50.284 269.713 34.284 288.856Q32.284 291.999 32.284 294.57Q32.284 298 34.284 300.284Q40.569 308.854 57.714 325.714T80.284 342.57Q83.428 342.57 86.284 340.57L119.142 314.855Q128.857 319.998 141.142 323.998Q144.285 354.855 147.714 367.998Q149.714 374.855 156.286 374.855H209.429Q212.569 374.855 215.141 372.712T217.998 367.712L224.568 323.997Q234.283 321.14 245.998 315.14L279.711 340.57Q281.997 342.57 285.425 342.57Q288.568 342.57 291.425 340.284Q332.568 302.284 332.568 294.569Q332.568 291.996 330.568 289.139Q327.141 284.569 318.568 273.711T305.712 256.568Q312.284 242.853 315.426 233.138L358.854 226.568Q361.711 225.995 363.711 223.568T365.711 217.994zM548.57 65.714V25.714Q548.57 21.142 506.0000000000001 16.857Q502.5700000000001 9.143 497.4270000000001 2Q512 -30.286 512 -37.428Q512 -38.571 510.857 -39.428Q476 -59.714 475.43 -59.714Q473.143 -59.714 462.286 -46.286T447.429 -26.858Q441.713 -27.43 438.855 -27.43T430.283 -26.858Q426.283 -32.858 415.426 -46.286T402.2829999999999 -59.714Q401.7109999999999 -59.714 366.8549999999999 -39.428Q365.712 -38.571 365.712 -37.428Q365.712 -30.285 380.284 2Q375.141 9.143 371.712 16.857Q329.14 21.143 329.14 25.7139999999999V65.7139999999999Q329.14 70.286 371.7129999999999 74.5709999999999Q375.4269999999999 82.8589999999999 380.2849999999999 89.4309999999999Q365.7129999999999 121.7159999999999 365.7129999999999 128.858Q365.7129999999999 130.0009999999999 366.8559999999999 130.858Q367.9989999999999 131.43 376.8559999999999 136.572T393.7129999999999 146.2869999999999T402.2849999999999 150.8589999999999Q404.5709999999999 150.8589999999999 415.4279999999999 137.5729999999999T430.2839999999999 118.2879999999999Q435.9979999999999 118.8599999999999 438.8559999999999 118.8599999999999T447.4279999999999 118.2879999999999Q461.9999999999999 138.5739999999999 473.7139999999999 150.2879999999999L475.4279999999999 150.8599999999999Q476.5709999999999 150.8599999999999 510.8559999999999 130.8599999999999Q511.9989999999999 130.0029999999999 511.9989999999999 128.8599999999999Q511.9989999999999 121.7169999999999 497.4289999999999 89.4319999999999Q502.2839999999999 82.8589999999999 505.9989999999999 74.5739999999999Q548.5709999999999 70.2889999999999 548.5709999999999 65.7179999999999zM548.57 358.284V318.284Q548.57 313.714 506.0000000000001 309.428Q502.5700000000001 301.714 497.4270000000001 294.5710000000001Q512 262.2870000000001 512 255.145Q512 254.002 510.857 253.145Q476 232.857 475.43 232.857Q473.143 232.857 462.286 246.285T447.429 265.713Q441.713 265.1430000000001 438.855 265.1430000000001T430.283 265.713Q426.283 259.713 415.426 246.285T402.2829999999999 232.857Q401.7109999999999 232.857 366.8549999999999 253.143Q365.712 254 365.712 255.143Q365.712 262.286 380.284 294.5710000000001Q375.141 301.716 371.712 309.431Q329.14 313.716 329.14 318.287V358.287Q329.14 362.859 371.7129999999999 367.144Q375.4269999999999 375.429 380.2849999999999 382.001Q365.7129999999999 414.286 365.7129999999999 421.429Q365.7129999999999 422.572 366.8559999999999 423.429Q367.9989999999999 424.001 376.8559999999999 429.144T393.7129999999999 438.859T402.2849999999999 443.431Q404.5709999999999 443.431 415.4279999999999 430.145T430.2839999999999 410.86Q435.9979999999999 411.43 438.8559999999999 411.43T447.4279999999999 410.86Q461.9999999999999 431.144 473.7139999999999 442.86L475.4279999999999 443.43Q476.5709999999999 443.43 510.8559999999999 423.43Q511.9989999999999 422.573 511.9989999999999 421.43Q511.9989999999999 414.287 497.4289999999999 382Q502.2839999999999 375.43 505.9989999999999 367.144Q548.5709999999999 362.859 548.5709999999999 358.287z" />
    <glyph glyph-name="exclamation"
      unicode="&#xF112;"
      horiz-adv-x="183" d=" M146.286 91.428V27.428Q146.286 20 140.858 14.571T128 9.145H54.86Q47.43 9.145 42.003 14.573T36.575 27.431V91.431Q36.575 98.859 42.005 104.288T54.861 109.716H128Q135.43 109.716 140.858 104.288T146.286 91.431zM154.856 393.143L146.856 173.713Q146.571 166.286 141 160.857T128 155.429H54.857Q47.427 155.429 41.857 160.855T36 173.714L28 393.144Q27.715 400.57 33 406T45.715 411.43H137.145Q144.573 411.43 149.858 406T154.858 393.1430000000001z" />
    <glyph glyph-name="home"
      unicode="&#xF113;"
      horiz-adv-x="476" d=" M402.286 164.57V27.43Q402.286 20.002 396.858 14.573T384 9.143H274.288V118.858H201.145V9.144H91.43Q84 9.144 78.572 14.572T73.142 27.432V164.57Q73.142 164.857 73.286 165.428T73.429 166.285L237.713 301.7150000000001L402 166.285Q402.286 165.7120000000001 402.286 164.5700000000001zM466 184.286L448.286 163.143Q446 160.571 442.286 160.0000000000001H441.429Q437.713 160.0000000000001 435.429 162.0000000000001L237.712 326.855L40 162Q36.57 159.713 33.142 160Q29.427 160.57 27.142 163.142L9.427 184.285Q7.141 187.1420000000001 7.427 190.999T10.57 197.139L215.998 368.286Q225.141 375.716 237.712 375.716T259.426 368.286L329.14 310V365.713Q329.14 369.713 331.712 372.285T338.284 374.857H393.141Q397.141 374.857 399.715 372.285T402.287 365.713V249.14L464.859 197.14Q467.716 194.855 468.002 190.998T466.002 184.283z" />
    <glyph glyph-name="info-circle"
      unicode="&#xF114;"
      horiz-adv-x="512" d=" M436.5 372.8C336.7 472.6 174.8 472.6 74.9 372.8C-25 273 -25 111.1 74.9 11.2C174.7 -88.6 336.7000000000001 -88.6 436.5 11.2C536.3 111 536.3 273 436.5 372.8zM251.6 403.5C278.6 403.5 300.5 381.5 300.5 354.5C300.5 327.3 278.5 305.1 251.6 305.1C224.4 305.1 202.1 327.3 202.1 354.5C202.1 382 223.8 403.5 251.6 403.5zM330.2 43.4C330.2 33.1 325.2 28.1 314.9 28.1H188.7C178.4 28.1 173.4 33.1 173.4 43.4V75.6C173.4 85.9 178.4 90.9 188.7 90.9H212V226.8H188.1C177.8 226.8 172.8 231.8 172.8 242.1V274.3C172.8 284.6 177.8 289.6 188.1 289.6H276.3C286.6 289.6 291.6 284.6 291.6 274.3V90.9H315C325.3 90.9 330.3 85.9 330.3 75.6V43.4z" />
    <glyph glyph-name="pencil"
      unicode="&#xF115;"
      horiz-adv-x="439" d=" M103.715 9.143L129.715 35.143L62.572 102.286L36.572 76.286V45.7139999999999H73.144V9.1419999999999H103.716zM253.143 274.285Q253.143 280.571 246.857 280.571Q244 280.571 242 278.571L87.143 123.716Q85.143 121.716 85.143 118.859Q85.143 112.573 91.428 112.573Q94.285 112.573 96.285 114.573L251.142 269.43Q253.142 271.43 253.142 274.2870000000001zM237.715 329.143L356.572 210.286L118.857 -27.43H0V91.43zM432.857 301.713Q432.857 286.571 422.285 276L374.857 228.572L256 347.43L303.428 394.572Q313.714 405.4290000000001 329.142 405.4290000000001Q344.285 405.4290000000001 355.142 394.569L422.285 327.713Q432.857 316.5700000000001 432.857 301.713z" />
    <glyph glyph-name="print"
      unicode="&#xF116;"
      horiz-adv-x="512" d=" M480 352H32C14.3 352 0 337.7 0 320V160C0 142.3 14.3 128 32 128H64V224H448V128H480C497.7 128 512 142.3 512 160V320C512 337.7 497.7 352 480 352zM64 288H32V320H64V288z M384 32H320V-32H128V192H96V-64H320L416 32V192H384M128 416H384V384H416V448H96V384H128 M160 160H352V128H160zM160 96H288V64H160z" />
    <glyph glyph-name="refresh"
      unicode="&#xF117;"
      horiz-adv-x="512" d=" M80.4 230.7C98.9 312.9 176.9 373 266 373C299.8 373 332.1 364.3 360.5 348.6C367.6 344.7 374.2 339.9 380.7 335.1L307.3 266.4L512.0999999999999 233.4L477.8999999999999 431.6L436.8999999999999 389.6C430.5999999999999 394.6 424 399.3 417.2999999999999 403.7C373.7 432.4 321.4 448 266 448C136.2 448 25.8 358.7 3.6 237.6L0 216.7H77.5L80.4 230.7zM431.6 153.3C413.1 71.1 335.1 11 246.1 11C212.3 11 180 19.7 151.6 35.4C144.5 39.3 137.9 44.1 131.4 48.9L204.8 117.6L0 150.7L34.1 -47.6L75.1 -5.6C81.4 -10.6 87.9 -15.3 94.7 -19.7C138.3 -48.4 190.6 -64 246.1 -64C375.9 -64 486.2 25.3 508.5 146.4L512.1 167.3H434.6L431.6 153.3z" />
    <glyph glyph-name="remove"
      unicode="&#xF118;"
      horiz-adv-x="512" d=" M512 38.4L358.4 192.1L512 345.6L409.6 448L256 294.4L102.4 448L0 345.6L153.6 192L0 38.4L102.4 -64L256 89.6L409.6 -64" />
    <glyph glyph-name="rss"
      unicode="&#xF119;"
      horiz-adv-x="512" d=" M68.6 73.2C30.8 73.2 0 42.3 0 4.5C0 -33.4 30.8 -64 68.6 -64C106.5 -64 137.3 -33.4 137.3 4.5C137.3 42.3 106.5 73.2 68.6 73.2zM1 271.2V180.7C65.4 179.5 125.9 153.8 171.6 108C217.4 62.3 243 1.7 244.2 -63.1H335.1C332.6 120.1 184.2 268.7 1 271.2z M1.1 448V357.5C231.7 355 418.8 167.7 421.3 -63.2H512C509.5 217.6 281.7 445.5 1.1 448z" />
    <glyph glyph-name="search"
      unicode="&#xF11A;"
      horiz-adv-x="476" d=" M329.143 210.285Q329.143 263.142 291.571 300.713T201.145 338.285T110.715 300.713T73.145 210.285T110.715 119.857T201.145 82.285T291.573 119.857T329.146 210.285zM475.43 -27.43Q475.43 -42.286 464.572 -53.143T438.858 -64Q423.43 -64 413.144 -53.143L315.144 44.571Q264.001 9.145 201.144 9.145Q160.287 9.145 123.001 25.002T58.717 67.86T15.86 132.144T0 210.286T15.86 288.43T58.717 352.7150000000001T123 395.572T201.144 411.429T279.2870000000001 395.569T343.5730000000001 352.713T386.4300000000001 288.427T402.2870000000001 210.283Q402.2870000000001 147.426 366.8590000000001 96.283L464.859 -1.717Q475.429 -12.289 475.429 -27.431z" />
    <glyph glyph-name="source"
      unicode="&#xF11B;"
      horiz-adv-x="512" d=" M499.7 223.2L362.5 329.8C348.6 340.7 328.4 338.2 317.6 324.2C306.7000000000001 310.3 309.3 290.2 323.2000000000001 279.3L429.5000000000001 196.7L321.9000000000001 103.8C308.5000000000001 92.2 307.1000000000001 72.1 318.6000000000001 58.7C325.0000000000001 51.4 333.9000000000001 47.6 342.8000000000001 47.6C350.2000000000001 47.6 357.7000000000001 50.2 363.7000000000001 55.4L500.8000000000001 173.9C508.1000000000001 180.2 512.1 189.4 511.9000000000001 198.9C511.7000000000001 208.3 507.2000000000001 217.3 499.7000000000001 223.2zM82.5 196.6L188.8 279.2C202.7 290.1 205.2 310.2 194.4 324.1C183.5 338.1 163.4 340.7 149.5 329.7L12.4 223.2C4.8 217.3 0.3 208.3 0 198.7C-0.2 189.1 3.8 180 11.1 173.7L148.3 55.2C154.3 50 161.8 47.4 169.2 47.4C178.2 47.4 187.1 51.2 193.4 58.5C205 71.9 203.5 92.1 190.1 103.6L82.5 196.6z" />
    <glyph glyph-name="square-o"
      unicode="&#xF11C;"
      horiz-adv-x="403" d=" M320 374.857H82.285Q63.428 374.857 49.999 361.427T36.569 329.142V91.427Q36.569 72.5700000000001 49.999 59.141T82.283 45.715H320Q338.857 45.715 352.286 59.143T365.714 91.43V329.14Q365.714 347.997 352.286 361.426T320 374.858zM402.286 329.1430000000001V91.428Q402.286 57.428 378.1430000000001 33.285T320 9.142H82.285Q48.285 9.142 24.142 33.285T0 91.428V329.1430000000001Q0 363.1430000000001 24.142 387.286T82.285 411.43H320Q354 411.43 378.1430000000001 387.286T402.2860000000001 329.1430000000001z" />
    <glyph glyph-name="trash-o"
      unicode="&#xF11D;"
      horiz-adv-x="403" d=" M146.286 237.714V73.144Q146.286 69.144 143.716 66.571T137.144 64.001H118.858Q114.858 64.001 112.286 66.571T109.714 73.145V237.7150000000001Q109.714 241.7150000000001 112.286 244.2850000000001T118.858 246.8580000000001H137.144Q141.144 246.8580000000001 143.716 244.2880000000001T146.286 237.7150000000001zM219.429 237.714V73.144Q219.429 69.144 216.856 66.571T210.284 64.001H192Q188 64.001 185.428 66.571T182.858 73.145V237.7150000000001Q182.858 241.7150000000001 185.428 244.2850000000001T192 246.8580000000001H210.286Q214.286 246.8580000000001 216.858 244.2880000000001T219.428 237.7150000000001zM292.569 237.714V73.144Q292.569 69.144 289.999 66.571T283.4260000000001 64.001H265.14Q261.14 64.001 258.57 66.571T256 73.145V237.7150000000001Q256 241.7150000000001 258.57 244.2850000000001T265.14 246.8580000000001H283.427Q287.427 246.8580000000001 289.999 244.2880000000001T292.569 237.7150000000001zM329.139 30.857V301.714H73.139V30.857Q73.139 24.571 75.139 19.285T79.284 11.571T82.284 9.145H320Q320.858 9.145 323 11.573T327.144 19.288T329.144 30.86zM137.139 338.285H265.139L251.427 371.715Q249.427 374.285 246.569 374.857H156Q153.142 374.285 151.142 371.714zM402.284 329.143V310.858Q402.284 306.858 399.712 304.286T393.14 301.716H365.713V30.858Q365.713 7.1439999999999 352.285 -10.1420000000001T320 -27.428H82.285Q63.428 -27.428 49.999 -10.714T36.569 29.714V301.714H9.14Q5.14 301.714 2.57 304.284T-0.003 310.856V329.142Q-0.003 333.142 2.569 335.714T9.139 338.286H97.425L117.425 386.001Q121.71 396.575 132.855 404.001T155.425 411.431H246.855Q258.282 411.431 269.425 404.001T284.855 386.001L304.855 338.288H393.14Q397.14 338.288 399.713 335.716T402.285 329.144z" />
  </font>
</defs>
</svg>
